热搜: 3D 4K 2019 2020 UHD
微信扫一扫 分享朋友圈

已有 3331 人浏览分享

首尔怪谈/서울괴담 Urban Myths 2022 1080p WEB-DL AAC2.0 H.264-Taengoo[6.99GB]

[复制链接]

该用户从未签到

7万

主题

7万

帖子

12万

积分

管理员

Rank: 9Rank: 9Rank: 9

积分
126703
发表于 2022-5-21 00:38:31 | 显示全部楼层 | 阅读模式



◎译  名 首尔怪谈/Goedam 2/Urban Myths/Urban Myths: Tooth Worms/도시괴담2
◎片  名 서울괴담
◎年  代 2022
◎产  地 韩国
◎类  别 恐怖/奇幻
◎语  言 韩语
◎上映日期 2022-04-27(韩国)
◎IMDb评分  4/10 from 9 users
◎IMDb链接  https://www.imdb.com/title/tt15784184/
◎豆瓣评分 /10 from 0 users
◎豆瓣链接 https://douban.com/subject/35441573/
◎片  长 123分钟
◎导  演 洪元基 Hong Won-ki
◎主  演 金度允 Do-yoon Kim
       奉宰铉 Bong Jae-hyun
       徐智秀 Seo Ji soo
       金炫廷 Hyun-jung Kim
       孙贤祐 Shownu
       崔乂园 Ye-won Choi
       雅丽克丝 AleXa
       秋昭贞 EXY
       吴龙 Ryoong Oh
       李旼赫 Min-hyuk Lee
       李垂珉 Soo-min Lee
       李烈音 Yul-eum Lee
       李英珍 Young-jin Lee
       李浩沅 Hoya
       郑元昌 Won-chang Jung
       周鹤年 Hak-nyeon Ju
       李承宪 Seung-heon Lee
◎简  介
  暂无相关剧情介绍
引用
General
Unique ID                                : 80891137561551250198881668255498369611 (0x3CDB110004C33043A62E4EE2794FFA4B)
Complete name                            : Urban.Myths.2022.1080p.WEB-DL.AAC2.0.H.264-Taengoo.mkv
Format                                   : Matroska
Format version                           : Version 4
File size                                : 6.99 GiB
Duration                                 : 2 h 3 min
Overall bit rate                         : 8 129 kb/s
Movie name                               : Urban Myths (2022)
Encoded date                             : UTC 2022-05-11 04:58:32
Writing application                      : mkvmerge v67.0.0 ('Under Stars') 64-bit
Writing library                          : libebml v1.4.2 + libmatroska v1.6.4
Video
ID                                       : 1
Format                                   : AVC
Format/Info                              : Advanced Video Codec
Format profile                           : Main@L4
Format settings                          : CABAC / 2 Ref Frames
Format settings, CABAC                   : Yes
Format settings, Reference frames        : 2 frames
Format settings, GOP                     : M=1, N=30
Codec ID                                 : V_MPEG4/ISO/AVC
Duration                                 : 2 h 3 min
Bit rate mode                            : Constant
Bit rate                                 : 8 000 kb/s
Width                                    : 1 920 pixels
Height                                   : 1 080 pixels
Display aspect ratio                     : 16:9
Frame rate mode                          : Constant
Frame rate                               : 23.976 (24000/1001) FPS
Color space                              : YUV
Chroma subsampling                       : 4:2:0
Bit depth                                : 8 bits
Scan type                                : Progressive
Bits/(Pixel*Frame)                       : 0.161
Stream size                              : 6.87 GiB (98%)
Default                                  : Yes
Forced                                   : No
Audio
ID                                       : 2
Format                                   : AAC LC
Format/Info                              : Advanced Audio Codec Low Complexity
Codec ID                                 : A_AAC-2
Duration                                 : 2 h 3 min
Bit rate                                 : 128 kb/s
Channel(s)                               : 2 channels
Channel layout                           : L R
Sampling rate                            : 48.0 kHz
Frame rate                               : 46.875 FPS (1024 SPF)
Compression mode                         : Lossy
Stream size                              : 113 MiB (2%)
Language                                 : Korean
Default                                  : Yes
Forced                                   : No








游客,如果您要查看本帖隐藏内容请回复

回复

使用道具 举报

  • TA的每日心情
    开心
    2022-5-23 15:26
  • 签到天数: 1 天

    [LV.1]初来乍到

    0

    主题

    4

    帖子

    9

    积分

    新手上路

    Rank: 1

    积分
    9
    发表于 2022-5-23 15:29:03 | 显示全部楼层
    我找了好久了
    回复

    使用道具 举报

  • TA的每日心情
    开心
    2022-5-23 15:26
  • 签到天数: 1 天

    [LV.1]初来乍到

    0

    主题

    4

    帖子

    9

    积分

    新手上路

    Rank: 1

    积分
    9
    发表于 2022-5-23 15:41:20 | 显示全部楼层
    你发的115网盘我下载不了啊
    回复

    使用道具 举报

    该用户从未签到

    7万

    主题

    7万

    帖子

    12万

    积分

    管理员

    Rank: 9Rank: 9Rank: 9

    积分
    126703
     楼主| 发表于 2022-5-23 15:48:08 来自手机  | 显示全部楼层
    xiawei 发表于 2022-5-23 15:41
    你发的115网盘我下载不了啊

    安装转存插件下载
    回复

    使用道具 举报

  • TA的每日心情
    开心
    2022-5-23 15:26
  • 签到天数: 1 天

    [LV.1]初来乍到

    0

    主题

    4

    帖子

    9

    积分

    新手上路

    Rank: 1

    积分
    9
    发表于 2022-5-23 16:09:04 | 显示全部楼层
    本帖最后由 xiawei 于 2022-5-23 16:10 编辑

    我装了 超过5g大小转存失败 是需要开会员才能好使吗
    回复

    使用道具 举报

  • TA的每日心情
    慵懒
    2022-5-23 20:47
  • 签到天数: 1 天

    [LV.1]初来乍到

    0

    主题

    2

    帖子

    4

    积分

    新手上路

    Rank: 1

    积分
    4
    发表于 2022-5-23 20:47:32 | 显示全部楼层
    谢谢紫薯布丁谢谢紫薯布丁谢谢紫薯布丁
    回复

    使用道具 举报

  • TA的每日心情
    开心
    2022-6-3 08:13
  • 签到天数: 1 天

    [LV.1]初来乍到

    0

    主题

    2

    帖子

    5

    积分

    新手上路

    Rank: 1

    积分
    5
    发表于 2022-6-3 08:17:49 | 显示全部楼层
    感謝大大分享 韓國最新的恐怖片
    回复

    使用道具 举报

  • TA的每日心情
    无聊
    14 小时前
  • 签到天数: 589 天

    [LV.9]以坛为家II

    2

    主题

    1584

    帖子

    3137

    积分

    黄金VIP会员

    Rank: 2

    积分
    3137
    发表于 2022-6-3 23:21:31 | 显示全部楼层
    非常不错的电影感谢分享
    回复

    使用道具 举报

  • TA的每日心情
    慵懒
    2022-6-9 15:44
  • 签到天数: 1 天

    [LV.1]初来乍到

    0

    主题

    2

    帖子

    35

    积分

    新手上路

    Rank: 1

    积分
    35
    发表于 2022-6-9 15:49:48 | 显示全部楼层
    找了好久,终于找到了。感谢分享~
    回复

    使用道具 举报

  • TA的每日心情
    开心
    14 小时前
  • 签到天数: 665 天

    [LV.9]以坛为家II

    1

    主题

    724

    帖子

    2917

    积分

    金牌会员

    Rank: 6Rank: 6

    积分
    2917
    发表于 2022-6-13 19:59:41 | 显示全部楼层
    驚悚懸疑
    回复

    使用道具 举报

    您需要登录后才可以回帖 登录 | 立即注册

    本版积分规则

    0

    关注

    1

    粉丝

    76301

    主题
    今日推荐
    下载排行
    最新电影
    今日推荐

    QQ|Archiver|手机版|小黑屋|高清鸭-HDDUCK

    GMT+8, 2024-7-25 23:55 , Processed in 0.162741 second(s), 33 queries .

    Powered by Discuz! X3.4

    © 2001-2020 Comsenz Inc.